Code:
Pirates of the Caribbean: Dead Men Tell No Tales (2017) [1080p - BDRip - DD 5.1 (448Kbps) [Hindi + Tamil + Eng] - x264 - 2.7GB - ESubs] - Team TR

General
Format                      : Matroska
Format version              : Version 4 / Version 2
File size                   : 2.78 GiB
Duration                    : 2 h 9 min
Overall bit rate            : 3 083 kb/s
Encoded date                : UTC 2017-10-11 20:16:27
Writing application         : mkvmerge v7.8.0 ('River Man') 64bit built on Mar 27 2015 16:31:37
Writing library             : libebml v1.3.1 + libmatroska v1.4.2

Video
ID                          : 1
Format                      : AVC
Format/Info                 : Advanced Video Codec
Format profile              : [email protected]
Format settings, CABAC      : Yes
Format settings, RefFrames  : 4 frames
Codec ID                    : V_MPEG4/ISO/AVC
Duration                    : 2 h 9 min
Bit rate                    : 2 050 kb/s
Width                       : 1 920 pixels
Height                      : 800 pixels
Display aspect ratio        : 2.40:1
Frame rate mode             : Constant
Frame rate                  : 23.976 (24000/1001) FPS
Color space                 : YUV
Chroma subsampling          : 4:2:0
Bit depth                   : 8 bits
Scan type                   : Progressive
Bits/(Pixel*Frame)          : 0.056
Stream size                 : 1.85 GiB (66%)
Writing library             : x264 core 148
Encoding settings           : cabac=1 / ref=4 / deblock=1:-1:-1 / analyse=0x3:0x133 / me=umh / subme=9 / psy=1 / psy_rd=1.00:0.15 / mixed_ref=1 / me_range=24 / chroma_me=1 / trellis=2 / 8x8dct=1 / cqm=0 / deadzone=21,11 / fast_pskip=0 / chroma_qp_offset=-3 / threads=12 / lookahead_threads=1 / sliced_threads=0 / nr=0 / decimate=1 / interlaced=0 / bluray_compat=0 / constrained_intra=0 / bframes=3 / b_pyramid=2 / b_adapt=2 / b_bias=0 / direct=3 / weightb=1 / open_gop=0 / weightp=2 / keyint=250 / keyint_min=23 / scenecut=40 / intra_refresh=0 / rc_lookahead=60 / rc=2pass / mbtree=1 / bitrate=2050 / ratetol=1.0 / qcomp=0.60 / qpmin=0 / qpmax=69 / qpstep=4 / cplxblur=20.0 / qblur=0.5 / vbv_maxrate=31250 / vbv_bufsize=31250 / nal_hrd=none / filler=0 / ip_ratio=1.40 / aq=1:1.00
Language                    : English
Default                     : Yes
Forced                      : Yes

Audio #1
ID                          : 2
Format                      : AC-3
Format/Info                 : Audio Coding 3
Format settings, Endianness : Big
Codec ID                    : A_AC3
Duration                    : 2 h 9 min
Bit rate mode               : Constant
Bit rate                    : 448 kb/s
Channel(s)                  : 6 channels
Channel positions           : Front: L C R, Side: L R, LFE
Sampling rate               : 44.1 kHz
Frame rate                  : 28.711 FPS (1536 SPF)
Bit depth                   : 16 bits
Compression mode            : Lossy
Delay relative to video     : -43 ms
Stream size                 : 414 MiB (15%)
Language                    : Tamil
Service kind                : Complete Main
Default                     : Yes
Forced                      : Yes

Audio #2
ID                          : 3
Format                      : AC-3
Format/Info                 : Audio Coding 3
Format settings, Endianness : Big
Codec ID                    : A_AC3
Duration                    : 2 h 9 min
Bit rate mode               : Constant
Bit rate                    : 448 kb/s
Channel(s)                  : 6 channels
Channel positions           : Front: L C R, Side: L R, LFE
Sampling rate               : 44.1 kHz
Frame rate                  : 28.711 FPS (1536 SPF)
Bit depth                   : 16 bits
Compression mode            : Lossy
Delay relative to video     : -43 ms
Stream size                 : 414 MiB (15%)
Language                    : Hindi
Service kind                : Complete Main
Default                     : No
Forced                      : No

Audio #3
ID                          : 4
Format                      : AAC
Format/Info                 : Advanced Audio Codec
Format profile              : LC
Codec ID                    : A_AAC
Duration                    : 2 h 9 min
Bit rate                    : 132 kb/s
Channel(s)                  : 2 channels
Channel positions           : Front: L R
Sampling rate               : 48.0 kHz
Frame rate                  : 46.875 FPS (1024 SPF)
Compression mode            : Lossy
Delay relative to video     : -43 ms
Stream size                 : 124 MiB (4%)
Language                    : English
Default                     : No
Forced                      : No

Text
ID                          : 5
Format                      : UTF-8
Codec ID                    : S_TEXT/UTF8
Codec ID/Info               : UTF-8 Plain Text
Duration                    : 1 h 55 min
Bit rate                    : 45 b/s
Count of elements           : 1358
Stream size                 : 38.0 KiB (0%)
Language                    : English
Default                     : No
Forced                      : No






Original Audios



Single Direct Fast Links
Code:
http://www.heroupload.com/06e9e294def0abcd/Pirates.of.the.Caribbean.Dead.Men.Tell.No.Tales.2017.10800p.BDRip.DD5.1.Original.Audios.Tamil+Hindi+English.mkv
Code:
http://filefloater.com/3xt/Pirates.of.the.Caribbean.Dead.Men.Tell.No.Tales.2017.10800p.BDRip.DD5.1.Original.Audios.Tamil+Hindi+English.mkv
700MB LINKS
Code:
http://www.heroupload.com/8af45b1bb780e953/Pirates.of.the.Caribbean.Dead.Men.Tell.No.Tales.2017.10800p.BDRip.DD5.1.Original.Audios.Tamil+Hindi+English.part1.rar
http://www.heroupload.com/f05d12bf397a5bd4/Pirates.of.the.Caribbean.Dead.Men.Tell.No.Tales.2017.10800p.BDRip.DD5.1.Original.Audios.Tamil+Hindi+English.part2.rar
http://www.heroupload.com/17812e1ebcaf2e1f/Pirates.of.the.Caribbean.Dead.Men.Tell.No.Tales.2017.10800p.BDRip.DD5.1.Original.Audios.Tamil+Hindi+English.part3.rar
http://www.heroupload.com/e76ac9b6354596ff/Pirates.of.the.Caribbean.Dead.Men.Tell.No.Tales.2017.10800p.BDRip.DD5.1.Original.Audios.Tamil+Hindi+English.part4.rar
http://www.heroupload.com/6624358498bb4a8f/Pirates.of.the.Caribbean.Dead.Men.Tell.No.Tales.2017.10800p.BDRip.DD5.1.Original.Audios.Tamil+Hindi+English.part5.rar
Code:
http://filefloater.com/3xu/Pirates.of.the.Caribbean.Dead.Men.Tell.No.Tales.2017.10800p.BDRip.DD5.1.Original.Audios.Tamil+Hindi+English.part1.rar
http://filefloater.com/3xv/Pirates.of.the.Caribbean.Dead.Men.Tell.No.Tales.2017.10800p.BDRip.DD5.1.Original.Audios.Tamil+Hindi+English.part2.rar
http://filefloater.com/3xw/Pirates.of.the.Caribbean.Dead.Men.Tell.No.Tales.2017.10800p.BDRip.DD5.1.Original.Audios.Tamil+Hindi+English.part3.rar
http://filefloater.com/3xx/Pirates.of.the.Caribbean.Dead.Men.Tell.No.Tales.2017.10800p.BDRip.DD5.1.Original.Audios.Tamil+Hindi+English.part4.rar
http://filefloater.com/3xy/Pirates.of.the.Caribbean.Dead.Men.Tell.No.Tales.2017.10800p.BDRip.DD5.1.Original.Audios.Tamil+Hindi+English.part5.rar